Basic Router Jigs with Ron Fox

Basic Router Jigs with Ron  Fox

Basic Router Jigs with Ron Fox
DVDRip | English | AVI | 640 x 360 | DX50 ~1496 kbps | 29.970 fps
MP3 | 128 Kbps | 44.1 KHz | 2 channels | 01:03:00 | 740 MB
Genre: eLearning Video / Woodworking
In this series Ron Fox demonstrates how to make some of his most popular and useful jigs for the router.


General
Complete name : Basic Router Jigs with Ron Fox.avi
Format : AVI
Format/Info : Audio Video Interleave
File size : 740 MiB
Duration : 1h 3mn
Overall bit rate : 1 638 Kbps
Writing application : Lavf52.39.0

Video
ID : 0
Format : MPEG-4 Visual
Format profile : [email protected]
Format settings, BVOP : No
Format settings, QPel : No
Format settings, GMC : No warppoints
Format settings, Matrix : Default (H.263)
Codec ID : DX50
Codec ID/Hint : DivX 5
Duration : 1h 3mn
Bit rate : 1 496 Kbps
Width : 640 pixels
Height : 360 pixels
Display aspect ratio : 16:9
Frame rate : 29.970 fps
Color space : YUV
Chroma subsampling : 4:2:0
Bit depth : 8 bits
Scan type : Progressive
Compression mode : Lossy
Bits/(Pixel*Frame) : 0.217
Stream size : 676 MiB (91%)
Writing library : Lavc52.36.0

Audio
ID : 1
Format : MPEG Audio
Format version : Version 1
Format profile : Layer 3
Mode : Joint stereo
Mode extension : MS Stereo
Codec ID : 55
Codec ID/Hint : MP3
Duration : 1h 3mn
Bit rate mode : Constant
Bit rate : 128 Kbps
Channel(s) : 2 channels
Sampling rate : 44.1 KHz
Compression mode : Lossy
Stream size : 57.8 MiB (8%)
Alignment : Aligned on interleaves
Interleave, duration : 26 ms (0.78 video frame)
Writing library : LAME3.98.2

Screenshots









Download link:

rapidgator_net:
https://rapidgator.net/file/29f1894740fce88096b3dd367283d5e4/mpigi.Basic.Router.Jigs.with.Ron.Fox.part1.rar.html
https://rapidgator.net/file/21674750d8fda619acc33b95e5f412eb/mpigi.Basic.Router.Jigs.with.Ron.Fox.part2.rar.html
https://rapidgator.net/file/645e439ac52b15a3d32d445d2e873943/mpigi.Basic.Router.Jigs.with.Ron.Fox.part3.rar.html
https://rapidgator.net/file/4fd73b967233b026b8f9e90a96e2beac/mpigi.Basic.Router.Jigs.with.Ron.Fox.part4.rar.html
https://rapidgator.net/file/a969a9713724ebe2a15d224095dffa15/mpigi.Basic.Router.Jigs.with.Ron.Fox.part5.rar.html
https://rapidgator.net/file/fddad288c5b2bac0a08737a5dcea340b/mpigi.Basic.Router.Jigs.with.Ron.Fox.part6.rar.html
https://rapidgator.net/file/98752e6eb367926d0cdf0c3bf9192c21/mpigi.Basic.Router.Jigs.with.Ron.Fox.part7.rar.html
https://rapidgator.net/file/b191f6fc7fc454e82a764cc9b939e0af/mpigi.Basic.Router.Jigs.with.Ron.Fox.part8.rar.html

nitroflare_com:
https://nitroflare.com/view/D6A11A156EB7105/mpigi.Basic.Router.Jigs.with.Ron.Fox.part1.rar
https://nitroflare.com/view/36BD4E3BA80B412/mpigi.Basic.Router.Jigs.with.Ron.Fox.part2.rar
https://nitroflare.com/view/AB6138ADD7379F6/mpigi.Basic.Router.Jigs.with.Ron.Fox.part3.rar
https://nitroflare.com/view/D53B3276BA788CA/mpigi.Basic.Router.Jigs.with.Ron.Fox.part4.rar
https://nitroflare.com/view/7DB023C23C601B7/mpigi.Basic.Router.Jigs.with.Ron.Fox.part5.rar
https://nitroflare.com/view/4874353BC9A1E78/mpigi.Basic.Router.Jigs.with.Ron.Fox.part6.rar
https://nitroflare.com/view/83D731D492046EF/mpigi.Basic.Router.Jigs.with.Ron.Fox.part7.rar
https://nitroflare.com/view/9A9DA65D505DA10/mpigi.Basic.Router.Jigs.with.Ron.Fox.part8.rar

uploadgig_com:
http://uploadgig.com/file/download/8f05556720CfB61b/mpigi.Basic.Router.Jigs.with.Ron.Fox.part1.rar
http://uploadgig.com/file/download/93f3Ba5636d519e4/mpigi.Basic.Router.Jigs.with.Ron.Fox.part2.rar
http://uploadgig.com/file/download/B3e800338fabCce1/mpigi.Basic.Router.Jigs.with.Ron.Fox.part3.rar
http://uploadgig.com/file/download/5b13753c03Ff03b9/mpigi.Basic.Router.Jigs.with.Ron.Fox.part4.rar
http://uploadgig.com/file/download/92aD072497aa6Ca5/mpigi.Basic.Router.Jigs.with.Ron.Fox.part5.rar
http://uploadgig.com/file/download/D013b2Bf8B6e2c20/mpigi.Basic.Router.Jigs.with.Ron.Fox.part6.rar
http://uploadgig.com/file/download/0c0559f0ed61923e/mpigi.Basic.Router.Jigs.with.Ron.Fox.part7.rar
http://uploadgig.com/file/download/8901228cc28904a3/mpigi.Basic.Router.Jigs.with.Ron.Fox.part8.rar


Links are Interchangeable - No Password - Single Extraction
Information
Users of Guests are not allowed to comment this publication.