Udemy - Full Stack dev - web, mobile, back-end API (Angular, Django)

Udemy - Full Stack dev - web, mobile, back-end API  (Angular, Django)

Udemy - Full Stack dev - web, mobile, back-end API (Angular, Django)
WEBRip | English | MP4 | 1280 x 720 | AVC ~3000 Kbps | 30 fps
AAC | 128 Kbps | 48.0 KHz | 2 channels | Subs: English | ~20 hours | 9.07 GB
Genre: Video Tutorial / Programming

Angular 6 web app, python Django 2 RESTfull API, Cross platform iOS and Android mobile with NativeScript

What you'll learn
Build Websites and Web Apps using Angular framework with jаvascript and Typescript
Build Cross platform mobile Android and iOS apps with Nativescript
Build Full working back-end API with Django and python
Deploy API and Web app on the servers absolutely for free
Use Git Version Control
Use Pycharm and Visual Studio Code
Command Line Interface (npm, angular CLI, nativescript CLI, python with pip)

Requirements
To follow along, you will need to have a computer with internet connection.
It will be explained in details during the course how to install and use all required tools and they are all absolutely free

Description
This course is during an update. All new content starts with BLUE SCREEN. I will update section by section when all ready.

Three ready to use applications deployed on servers for public use and all that with no costs included. All Frameworks, libraries, tools ans servers cover in this course are completely for free. Source code for all apps included so you can grab it and use whatever you like. No restrictions apply.

We will start course from the introduction for the tools. We will cover IDE tools, Git version control, Django, Angular and NativeScript CLI. And we will be talking about the process of creating full stack apps.

In the second section wi will create a new Django API from scratch. I will show hot to install all requirements, how to create our own models, how to work with views, serialisers and urls.

Once, our API is done we will create a font-end web app with Angular. We will create our own components, services, communicate with API with http request. We will do some styling.

Another section will cover creating new application on mobile. We will target both android and iOS devices. We will reuse a lot of code from Angular.

Last section is deployment where I show how to deploy all apps on live server completely for free. Our web app Angular will be placed on the different server then our back-end Django API.

Last section will cover next steps. What should you do as a new full stack developer: where to look for help, what else in on the pipeline, what are test and why to to them and how to monetize your skills and make some money from what you have learned.

Who this course is for:
Anyone who want to become a Full Stack developer
Beginners who would like to know how web and mobile apps are connected with back-end
Anyone who want to know how to make web apps, mobile apps and APIs
Front-end developers who wants to expand their expertise to backend

General
Complete name : 4. Movie List.mp4
Format : MPEG-4
Format profile : Base Media
Codec ID : isom (isom/iso2/avc1/mp41)
File size : 115 MiB
Duration : 10 min 25 s
Overall bit rate : 1 544 kb/s
Writing application : Lavf58.12.100

Video
ID : 1
Format : AVC
Format/Info : Advanced Video Codec
Format profile : Main@L3.1
Format settings : CABAC / 4 Ref Frames
Format settings, CABAC : Yes
Format settings, RefFrames : 4 frames
Codec ID : avc1
Codec ID/Info : Advanced Video Coding
Duration : 10 min 25 s
Bit rate : 1 407 kb/s
Nominal bit rate : 3 000 kb/s
Width : 1 280 pixels
Height : 720 pixels
Display aspect ratio : 16:9
Frame rate mode : Constant
Frame rate : 30.000 FPS
Color space : YUV
Chroma subsampling : 4:2:0
Bit depth : 8 bits
Scan type : Progressive
Bits/(Pixel*Frame) : 0.051
Stream size : 105 MiB (91%)
Writing library : x264 core 148
Encoding settings : cabac=1 / ref=3 / deblock=1:-1:-1 / analyse=0x1:0x111 / me=umh / subme=6 / psy=1 / psy_rd=1.00:0.15 / mixed_ref=1 / me_range=16 / chroma_me=1 / trellis=1 / 8x8dct=0 / cqm=0 / deadzone=21,11 / fast_pskip=1 / chroma_qp_offset=-3 / threads=22 / lookahead_threads=3 / sliced_threads=0 / nr=0 / decimate=1 / interlaced=0 / bluray_compat=0 / constrained_intra=0 / bframes=3 / b_pyramid=2 / b_adapt=1 / b_bias=0 / direct=1 / weightb=1 / open_gop=0 / weightp=2 / keyint=60 / keyint_min=6 / scenecut=0 / intra_refresh=0 / rc_lookahead=60 / rc=cbr / mbtree=1 / bitrate=3000 / ratetol=1.0 / qcomp=0.60 / qpmin=0 / qpmax=69 / qpstep=4 / vbv_maxrate=3000 / vbv_bufsize=6000 / nal_hrd=none / filler=0 / ip_ratio=1.40 / aq=1:1.00

Audio
ID : 2
Format : AAC
Format/Info : Advanced Audio Codec
Format profile : LC
Codec ID : mp4a-40-2
Duration : 10 min 25 s
Bit rate mode : Constant
Bit rate : 128 kb/s
Channel(s) : 2 channels
Channel positions : Front: L R
Sampling rate : 48.0 kHz
Frame rate : 46.875 FPS (1024 SPF)
Compression mode : Lossy
Stream size : 9.54 MiB (8%)
Default : Yes
Alternate group : 1

Screenshots









Download link:

rapidgator_net:
https://rapidgator.net/file/a8f6f6e1232861b839a2732d8e6e0ea1/zvtoh.Udemy..Full.Stack.dev..web.mobile.backend.API.Angular.Django.part01.rar.html
https://rapidgator.net/file/149fd0e0dc5d32e553f950554616b610/zvtoh.Udemy..Full.Stack.dev..web.mobile.backend.API.Angular.Django.part02.rar.html
https://rapidgator.net/file/b67b44c3aa9ae7689245c680c6bad2c0/zvtoh.Udemy..Full.Stack.dev..web.mobile.backend.API.Angular.Django.part03.rar.html
https://rapidgator.net/file/168f5b6646814ffd3c61826e4fb5be68/zvtoh.Udemy..Full.Stack.dev..web.mobile.backend.API.Angular.Django.part04.rar.html
https://rapidgator.net/file/8d007f7056a088af26fa2723d66fe0bd/zvtoh.Udemy..Full.Stack.dev..web.mobile.backend.API.Angular.Django.part05.rar.html
https://rapidgator.net/file/6cf781cdaf23eebd641430922a901f55/zvtoh.Udemy..Full.Stack.dev..web.mobile.backend.API.Angular.Django.part06.rar.html
https://rapidgator.net/file/80c7a0131eb336905e2b180f386ff590/zvtoh.Udemy..Full.Stack.dev..web.mobile.backend.API.Angular.Django.part07.rar.html
https://rapidgator.net/file/7c1ac94b44a9ae2fcc2703f0883c9502/zvtoh.Udemy..Full.Stack.dev..web.mobile.backend.API.Angular.Django.part08.rar.html
https://rapidgator.net/file/5ec88703aeaf89191a3aeda7f8fb4609/zvtoh.Udemy..Full.Stack.dev..web.mobile.backend.API.Angular.Django.part09.rar.html
https://rapidgator.net/file/a21b9dab6fb564308af69cdb0a6c1438/zvtoh.Udemy..Full.Stack.dev..web.mobile.backend.API.Angular.Django.part10.rar.html

nitroflare_com:
https://nitroflare.com/view/9D80FEB01B7BA94/zvtoh.Udemy..Full.Stack.dev..web.mobile.backend.API.Angular.Django.part01.rar
https://nitroflare.com/view/001E6E3DE0B9515/zvtoh.Udemy..Full.Stack.dev..web.mobile.backend.API.Angular.Django.part02.rar
https://nitroflare.com/view/E09FBCE45E9081C/zvtoh.Udemy..Full.Stack.dev..web.mobile.backend.API.Angular.Django.part03.rar
https://nitroflare.com/view/0933E58F452627F/zvtoh.Udemy..Full.Stack.dev..web.mobile.backend.API.Angular.Django.part04.rar
https://nitroflare.com/view/E78F454F49B7DA3/zvtoh.Udemy..Full.Stack.dev..web.mobile.backend.API.Angular.Django.part05.rar
https://nitroflare.com/view/25FC85B0C97BA03/zvtoh.Udemy..Full.Stack.dev..web.mobile.backend.API.Angular.Django.part06.rar
https://nitroflare.com/view/E9FBDB09A7E4564/zvtoh.Udemy..Full.Stack.dev..web.mobile.backend.API.Angular.Django.part07.rar
https://nitroflare.com/view/829BD60877376E5/zvtoh.Udemy..Full.Stack.dev..web.mobile.backend.API.Angular.Django.part08.rar
https://nitroflare.com/view/C2535B2EC2B3E87/zvtoh.Udemy..Full.Stack.dev..web.mobile.backend.API.Angular.Django.part09.rar
https://nitroflare.com/view/43D9CC2ED046D70/zvtoh.Udemy..Full.Stack.dev..web.mobile.backend.API.Angular.Django.part10.rar

uploadgig_com:
http://uploadgig.com/file/download/8512119bF5650e94/zvtoh.Udemy..Full.Stack.dev..web.mobile.backend.API.Angular.Django.part01.rar
http://uploadgig.com/file/download/f1A510f2128599e8/zvtoh.Udemy..Full.Stack.dev..web.mobile.backend.API.Angular.Django.part02.rar
http://uploadgig.com/file/download/B2426d7caCe2e1A7/zvtoh.Udemy..Full.Stack.dev..web.mobile.backend.API.Angular.Django.part03.rar
http://uploadgig.com/file/download/0085d73a284d6376/zvtoh.Udemy..Full.Stack.dev..web.mobile.backend.API.Angular.Django.part04.rar
http://uploadgig.com/file/download/df5c35f16879e582/zvtoh.Udemy..Full.Stack.dev..web.mobile.backend.API.Angular.Django.part05.rar
http://uploadgig.com/file/download/C3cA7d81E78cf701/zvtoh.Udemy..Full.Stack.dev..web.mobile.backend.API.Angular.Django.part06.rar
http://uploadgig.com/file/download/b76E9C4f0369cb79/zvtoh.Udemy..Full.Stack.dev..web.mobile.backend.API.Angular.Django.part07.rar
http://uploadgig.com/file/download/E0fcaa8938682912/zvtoh.Udemy..Full.Stack.dev..web.mobile.backend.API.Angular.Django.part08.rar
http://uploadgig.com/file/download/8d942f8D1d01a18d/zvtoh.Udemy..Full.Stack.dev..web.mobile.backend.API.Angular.Django.part09.rar
http://uploadgig.com/file/download/5b165A30b07544a3/zvtoh.Udemy..Full.Stack.dev..web.mobile.backend.API.Angular.Django.part10.rar


Links are Interchangeable - No Password - Single Extraction
Information
Users of Guests are not allowed to comment this publication.