Cisco CCNA 100-105 ICND1 Interconnecting Cisco Networking Devices

Cisco CCNA 100-105 ICND1 Interconnecting Cisco Networking  Devices


Cisco CCNA 100-105 ICND1: Interconnecting Cisco Networking Devices
WEBRip | English | MP4 | 1280 x 720 | AVC ~303 kbps | 30 fps
AAC | 96 Kbps | 48.0 KHz | 2 channels | ~23 hours | 3.2 GB
Genre: eLearning Video / Networks, Security

This course will enable students to understand virtualization and cloud services, and network programmability related to LAN, access and core segments. It will provide the foundational understanding of network layers 1-3 that are applicable to core routing and switching plus other advanced technologies.

Several topics have been added including; understanding the interactions and network functions of firewalls, wireless controllers and access points, along with additional focus on IPv6 and basic network security. The configuration commands are introduced through examples and supported with lab exercises. This course prepares you to get take the ICND1 Exam.

General
Complete name : 2. Alternative Considerations.mp4
Format : MPEG-4
Codec ID : M4V (isom/avc1/mp42)
File size : 12.2 MiB
Duration : 4 min 10 s
Overall bit rate mode : Variable
Overall bit rate : 408 kb/s
Encoded date : UTC 2019-12-17 17:14:29
Tagged date : UTC 2019-12-17 17:14:29

Video
ID : 1
Format : AVC
Format/Info : Advanced Video Codec
Format profile : High@L3.1
Format settings : CABAC / 3 Ref Frames
Format settings, CABAC : Yes
Format settings, RefFrames : 3 frames
Format settings, GOP : M=3, N=90
Codec ID : avc1
Codec ID/Info : Advanced Video Coding
Duration : 4 min 10 s
Bit rate mode : Variable
Bit rate : 303 kb/s
Maximum bit rate : 3 000 kb/s
Width : 1 280 pixels
Height : 720 pixels
Display aspect ratio : 16:9
Frame rate mode : Constant
Frame rate : 30.000 FPS
Color space : YUV
Chroma subsampling : 4:2:0
Bit depth : 8 bits
Scan type : Progressive
Bits/(Pixel*Frame) : 0.011
Stream size : 9.06 MiB (74%)
Encoded date : UTC 2019-12-17 17:14:29
Tagged date : UTC 2019-12-17 17:14:29
Color range : Limited
Color primaries : BT.709
Transfer characteristics : BT.709
Matrix coefficients : BT.709

Audio
ID : 2
Format : AAC
Format/Info : Advanced Audio Codec
Format profile : LC
Codec ID : mp4a-40-2
Duration : 4 min 10 s
Bit rate mode : Variable
Bit rate : 96.0 kb/s
Maximum bit rate : 101 kb/s
Channel(s) : 2 channels
Channel positions : Front: L R
Sampling rate : 48.0 kHz
Frame rate : 46.875 FPS (1024 SPF)
Compression mode : Lossy
Stream size : 2.87 MiB (24%)
Language : English
Encoded date : UTC 2019-12-17 17:14:29
Tagged date : UTC 2019-12-17 17:14:29

Download link:

rapidgator_net:
https://rapidgator.net/file/3a2cf943eae1e413a6736b57de9fe52c/t935z.Cisco.CCNA.100105.ICND1.Interconnecting.Cisco.Networking.Devices.part01.rar.html
https://rapidgator.net/file/dd88bf6d05b405cb3251f82b4c57725f/t935z.Cisco.CCNA.100105.ICND1.Interconnecting.Cisco.Networking.Devices.part02.rar.html
https://rapidgator.net/file/5fbe9c813d578a8e2d59add30bb68428/t935z.Cisco.CCNA.100105.ICND1.Interconnecting.Cisco.Networking.Devices.part03.rar.html
https://rapidgator.net/file/fafbaaaf7e4ce2d8fe0bd7c793d7c32e/t935z.Cisco.CCNA.100105.ICND1.Interconnecting.Cisco.Networking.Devices.part04.rar.html
https://rapidgator.net/file/f2983a2caa551a494691805bcd679941/t935z.Cisco.CCNA.100105.ICND1.Interconnecting.Cisco.Networking.Devices.part05.rar.html
https://rapidgator.net/file/3211a6de859f812d233eb03d433a377c/t935z.Cisco.CCNA.100105.ICND1.Interconnecting.Cisco.Networking.Devices.part06.rar.html
https://rapidgator.net/file/c162828e649e3013b6b21317af8f84cb/t935z.Cisco.CCNA.100105.ICND1.Interconnecting.Cisco.Networking.Devices.part07.rar.html
https://rapidgator.net/file/e2c40defb4972e2b0ef67eda8c9dcadf/t935z.Cisco.CCNA.100105.ICND1.Interconnecting.Cisco.Networking.Devices.part08.rar.html
https://rapidgator.net/file/9b43bb62ca14504345b3716a302bd0d8/t935z.Cisco.CCNA.100105.ICND1.Interconnecting.Cisco.Networking.Devices.part09.rar.html
https://rapidgator.net/file/106b72945b8528d72aab4c9077f76ff3/t935z.Cisco.CCNA.100105.ICND1.Interconnecting.Cisco.Networking.Devices.part10.rar.html

nitroflare_com:
https://nitroflare.com/view/C811B2DAAE35EFB/t935z.Cisco.CCNA.100105.ICND1.Interconnecting.Cisco.Networking.Devices.part01.rar
https://nitroflare.com/view/E7CCA86DB35EA3A/t935z.Cisco.CCNA.100105.ICND1.Interconnecting.Cisco.Networking.Devices.part02.rar
https://nitroflare.com/view/14C84B2D57D4A49/t935z.Cisco.CCNA.100105.ICND1.Interconnecting.Cisco.Networking.Devices.part03.rar
https://nitroflare.com/view/047C197DA9B6E65/t935z.Cisco.CCNA.100105.ICND1.Interconnecting.Cisco.Networking.Devices.part04.rar
https://nitroflare.com/view/B6E2190EB3B5193/t935z.Cisco.CCNA.100105.ICND1.Interconnecting.Cisco.Networking.Devices.part05.rar
https://nitroflare.com/view/24699345C8ECE43/t935z.Cisco.CCNA.100105.ICND1.Interconnecting.Cisco.Networking.Devices.part06.rar
https://nitroflare.com/view/680AA1BB923521D/t935z.Cisco.CCNA.100105.ICND1.Interconnecting.Cisco.Networking.Devices.part07.rar
https://nitroflare.com/view/8E56A540D77056C/t935z.Cisco.CCNA.100105.ICND1.Interconnecting.Cisco.Networking.Devices.part08.rar
https://nitroflare.com/view/9F318934AD8A8C4/t935z.Cisco.CCNA.100105.ICND1.Interconnecting.Cisco.Networking.Devices.part09.rar
https://nitroflare.com/view/4AE77A213A4E0A8/t935z.Cisco.CCNA.100105.ICND1.Interconnecting.Cisco.Networking.Devices.part10.rar

uploadgig_com:
http://uploadgig.com/file/download/69b5bFD8ae021000/t935z.Cisco.CCNA.100105.ICND1.Interconnecting.Cisco.Networking.Devices.part01.rar
http://uploadgig.com/file/download/9B05040318A74F66/t935z.Cisco.CCNA.100105.ICND1.Interconnecting.Cisco.Networking.Devices.part02.rar
http://uploadgig.com/file/download/3Cb2ac1d06ec68Ad/t935z.Cisco.CCNA.100105.ICND1.Interconnecting.Cisco.Networking.Devices.part03.rar
http://uploadgig.com/file/download/F96294fc04475531/t935z.Cisco.CCNA.100105.ICND1.Interconnecting.Cisco.Networking.Devices.part04.rar
http://uploadgig.com/file/download/65e7d9B0De04b6D0/t935z.Cisco.CCNA.100105.ICND1.Interconnecting.Cisco.Networking.Devices.part05.rar
http://uploadgig.com/file/download/Afa59AdbDf7d1221/t935z.Cisco.CCNA.100105.ICND1.Interconnecting.Cisco.Networking.Devices.part06.rar
http://uploadgig.com/file/download/7bcFa15ff14fc667/t935z.Cisco.CCNA.100105.ICND1.Interconnecting.Cisco.Networking.Devices.part07.rar
http://uploadgig.com/file/download/dea78cD37b865fB7/t935z.Cisco.CCNA.100105.ICND1.Interconnecting.Cisco.Networking.Devices.part08.rar
http://uploadgig.com/file/download/9a69686D2F15e3d1/t935z.Cisco.CCNA.100105.ICND1.Interconnecting.Cisco.Networking.Devices.part09.rar
http://uploadgig.com/file/download/Fc5b87dbefA12aaD/t935z.Cisco.CCNA.100105.ICND1.Interconnecting.Cisco.Networking.Devices.part10.rar


Links are Interchangeable - No Password - Single Extraction
Information
Users of Guests are not allowed to comment this publication.