Podcasts with Brian Voong

Podcasts with Brian  Voong


Podcasts with Brian Voong
WEBRip | English | MP4 + Project Files | 1280 x 720 | AVC ~731 Kbps | 29.970 fps
AAC | 256 Kbps | 48.0 KHz | 2 channels | 12:49:45 | 5.51 GB
Genre: Video Tutorial / Development, Programming

In this exciting, jam-packed Podcasts course, we'll be learning about all the proper techniques to build out an Audio Player application. Our app will be fully functional in terms of searching for available Podcasts on iTunes, bookmarking your favorite stations, and full support for audio playback. Furthermore, an Audio app wouldn't be complete without offline playback capabilities; which turns out is an extremely fun feature to build out.

Now one of the tricky parts about audio applications is that they require the ability to be active while backgrounded. In addition to being active, one must also present the proper playback controls in the Command Center and Lock Screen. We will take care of this by setting up the proper Cover Art and Pause, Play, Previous, and Next track action buttons.

Core Features:
Alamofire Integration to greatly simplify network requests architecture
AVKit Audio Player libraries for audio playback
Offline Playback of podcasts enabled through download feature
Control playback when App is in background
Draggable Floating Player component accessible across all screens
Search for Podcasts through iTunes API
Parsing JSON asynchronously
Learn to use XML parsing Pods through Cocoapods integration
User Favorites persistence with UserDefaults

Who this course is for?
- You've always wanted to learn about Audio Playback
- You've created a dozen list apps already, you want to work on real functionality.
- You are hungry for more advanced iOS & Swift programming

Content:

00. Preview
01. Course Overview - Determine Workflows
02. MainTabBarController + Coding Tips
03. Podcasts UITableViewController + UISearchController
04. Installing Alamofire Cocoapods and iTunes Search API
05. Decodable Podcasts and URLEncoding Requests
06. Parsing JSON Just Became Super Easy in Swift 4 with Decodable
07. Fixing Massive View Controller with Code Refactor
08. Cell Designs with XIBs and Interface Builder
09. Loading + Caching Images with SDWebImage
10. Showing Episodes Controller
11. Parsing RSS XML Feed with FeedKit
12. Episode Cell Details and Design with Interface Builder
13. Episode Images and Extensions Refactor
14. Launching our Podcast Player
15. Player Details Design Continued
16. Play Episode with AVPlayer
17. Animations and Monitor Start Time
18. Tracking Playback Time
19. Time Slider, Rewind, Fast Forward, Volume Controls
20. Retain Cycle + Async Loading + Search Delay Fixes
21. Maximizing and Minimizing Player Animations
22. Play Episode Maximizing Animation
23. Mini Player View
24. Drag and Drop UIPanGesture Recognizer Pt
25. Drag and Drop Pt
26. Player Dismissal on Drag
27. Background Audio Mode + Command Center Controls
28. Now Playing Info on Lock Screen
29. Artwork Fix and Elapsed Time Bugs
30. Previous and Next Track Commands
31. Handling Interruptions and Lock Screen Fixes
32. Favorites 2 Column Grid UICollectionView Controller
33. Favorite Podcast Cell in Code UIStackView
34. Persistence with UserDefaults NSCoding
35. Save Favorites List and Long Press Delete
36. Tab Bar Badge Value
37. Download Episodes JSONEncoder Decoder
38. Download Episode for Offline Playback
39. Play Downloaded Audio Files Offline
40. Monitor Download Progress Notification Center

General
Complete name : 16. Play Episode with AVPlayer.mp4
Format : MPEG-4
Format profile : Base Media / Version 2
Codec ID : mp42 (mp42/mp41/isom/avc1)
File size : 122 MiB
Duration : 17 min 8 s
Overall bit rate mode : Variable
Overall bit rate : 992 kb/s
Encoded date : UTC 2018-03-02 04:49:32
Tagged date : UTC 2018-03-02 04:49:32

Video
ID : 1
Format : AVC
Format/Info : Advanced Video Codec
Format profile : High@L3.2
Format settings : CABAC / 5 Ref Frames
Format settings, CABAC : Yes
Format settings, RefFrames : 5 frames
Codec ID : avc1
Codec ID/Info : Advanced Video Coding
Duration : 17 min 8 s
Bit rate : 731 kb/s
Width : 1 280 pixels
Height : 720 pixels
Display aspect ratio : 16:9
Frame rate mode : Constant
Frame rate : 29.970 (30000/1001) FPS
Color space : YUV
Chroma subsampling : 4:2:0
Bit depth : 8 bits
Scan type : Progressive
Bits/(Pixel*Frame) : 0.026
Stream size : 89.6 MiB (74%)
Writing library : x264 core 155 r10 b00bcaf
Encoding settings : cabac=1 / ref=5 / deblock=1:0:0 / analyse=0x3:0x113 / me=hex / subme=8 / psy=1 / psy_rd=1.00:0.00 / mixed_ref=1 / me_range=16 / chroma_me=1 / trellis=2 / 8x8dct=1 / cqm=0 / deadzone=21,11 / fast_pskip=1 / chroma_qp_offset=-2 / threads=22 / lookahead_threads=3 / sliced_threads=0 / nr=0 / decimate=1 / interlaced=0 / bluray_compat=0 / stitchable=1 / constrained_intra=0 / bframes=3 / b_pyramid=2 / b_adapt=2 / b_bias=0 / direct=3 / weightb=1 / open_gop=0 / weightp=2 / keyint=infinite / keyint_min=29 / scenecut=40 / intra_refresh=0 / rc_lookahead=50 / rc=crf / mbtree=1 / crf=20.0 / qcomp=0.60 / qpmin=5 / qpmax=69 / qpstep=4 / vbv_maxrate=2750 / vbv_bufsize=7500 / crf_max=0.0 / nal_hrd=none / filler=0 / ip_ratio=1.40 / aq=1:1.00
Encoded date : UTC 2018-03-02 04:49:32
Tagged date : UTC 2018-03-02 04:49:32
Color range : Limited
Color primaries : BT.709
Transfer characteristics : BT.709
Matrix coefficients : BT.709

Audio
ID : 2
Format : AAC
Format/Info : Advanced Audio Codec
Format profile : LC
Codec ID : mp4a-40-2
Duration : 17 min 8 s
Bit rate mode : Variable
Bit rate : 256 kb/s
Channel(s) : 2 channels
Channel positions : Front: L R
Sampling rate : 48.0 kHz
Frame rate : 46.875 FPS (1024 SPF)
Compression mode : Lossy
Stream size : 31.4 MiB (26%)
Encoded date : UTC 2018-03-02 04:49:32
Tagged date : UTC 2018-03-02 04:49:32

Download link:

rapidgator_net:
https://rapidgator.net/file/28628e048dcd18b72c1988dcd2e1b9d3/ph5jh.Podcasts.with.Brian.Voong.part01.rar.html
https://rapidgator.net/file/d35965a2460cb204328fbdbf7d7a96fc/ph5jh.Podcasts.with.Brian.Voong.part02.rar.html
https://rapidgator.net/file/8d321cdbe3a0a43f6d9893d93e3751e6/ph5jh.Podcasts.with.Brian.Voong.part03.rar.html
https://rapidgator.net/file/a1e6d951fe9a3b5668bf10b6d93aec82/ph5jh.Podcasts.with.Brian.Voong.part04.rar.html
https://rapidgator.net/file/8e88fe01de474f1573ad2b876b3b187b/ph5jh.Podcasts.with.Brian.Voong.part05.rar.html
https://rapidgator.net/file/70e5fa33a72734ca76500f3defad40fb/ph5jh.Podcasts.with.Brian.Voong.part06.rar.html
https://rapidgator.net/file/7c8d16cca44a6ccfab05d93dfbf3784a/ph5jh.Podcasts.with.Brian.Voong.part07.rar.html
https://rapidgator.net/file/0a345324751118ab3d9d489cdffc9c0f/ph5jh.Podcasts.with.Brian.Voong.part08.rar.html
https://rapidgator.net/file/7d95fd30bed44e3896d717711dfa8d51/ph5jh.Podcasts.with.Brian.Voong.part09.rar.html
https://rapidgator.net/file/71dec1b33e8ac3542caf10edfe14199f/ph5jh.Podcasts.with.Brian.Voong.part10.rar.html

nitroflare_com:
https://nitroflare.com/view/6039A50FBAD1FFD/ph5jh.Podcasts.with.Brian.Voong.part01.rar
https://nitroflare.com/view/6025B6F6EF20006/ph5jh.Podcasts.with.Brian.Voong.part02.rar
https://nitroflare.com/view/F0E013FF8FE8B54/ph5jh.Podcasts.with.Brian.Voong.part03.rar
https://nitroflare.com/view/D0F675EBD9BC1BB/ph5jh.Podcasts.with.Brian.Voong.part04.rar
https://nitroflare.com/view/31EDE51808AA224/ph5jh.Podcasts.with.Brian.Voong.part05.rar
https://nitroflare.com/view/F049D9B7DAB7F5D/ph5jh.Podcasts.with.Brian.Voong.part06.rar
https://nitroflare.com/view/7787CF29AC8779B/ph5jh.Podcasts.with.Brian.Voong.part07.rar
https://nitroflare.com/view/57137CCD12D5BD9/ph5jh.Podcasts.with.Brian.Voong.part08.rar
https://nitroflare.com/view/999B5D5FAECF205/ph5jh.Podcasts.with.Brian.Voong.part09.rar
https://nitroflare.com/view/8C310558365DB63/ph5jh.Podcasts.with.Brian.Voong.part10.rar

uploadgig_com:
http://uploadgig.com/file/download/2399ceB5bf261778/ph5jh.Podcasts.with.Brian.Voong.part01.rar
http://uploadgig.com/file/download/e38F99Cf873F3247/ph5jh.Podcasts.with.Brian.Voong.part02.rar
http://uploadgig.com/file/download/3604b3f005c83896/ph5jh.Podcasts.with.Brian.Voong.part03.rar
http://uploadgig.com/file/download/a896E962c4EB5b83/ph5jh.Podcasts.with.Brian.Voong.part04.rar
http://uploadgig.com/file/download/9760b4e627f82bC8/ph5jh.Podcasts.with.Brian.Voong.part05.rar
http://uploadgig.com/file/download/76FCC0F1a9f85222/ph5jh.Podcasts.with.Brian.Voong.part06.rar
http://uploadgig.com/file/download/b8Ab85e2135388d4/ph5jh.Podcasts.with.Brian.Voong.part07.rar
http://uploadgig.com/file/download/f625901d796520C5/ph5jh.Podcasts.with.Brian.Voong.part08.rar
http://uploadgig.com/file/download/53Ec9cFa4B9171f7/ph5jh.Podcasts.with.Brian.Voong.part09.rar
http://uploadgig.com/file/download/9f306D5Dd80d4353/ph5jh.Podcasts.with.Brian.Voong.part10.rar


Links are Interchangeable - No Password - Single Extraction
Information
Users of Guests are not allowed to comment this publication.