Woodworkers Guild Of America - Logs to Lumber

Woodworkers Guild Of America - Logs to  Lumber


Woodworkers Guild Of America - Logs to Lumber
DVD5 | English | VIDEO_TS | 720 x 480 | MPEG2 ~6296 Kbps | 29.970 fps
AC-3 | 192 Kbps | 48.0 KHz | 2 channel | 01:19:31 | 3.77 GB
Genre: eLearning Video / Woodworking

This insightful video will show you how to turn logs to lumber. You will get the lumber you want straight from your favorite trees using your own tools and even set up your own kiln for drying your wood perfectly every time. You'll also gain an understanding of how boards are graded, and how to use that information to save money when you buy boards.

General
Complete name : VTS_03_2.VOB
Format : MPEG-PS
File size : 1 024 MiB
Duration : 21 min 37 s
Overall bit rate mode : Variable
Overall bit rate : 6 620 kb/s

Video
ID : 224 (0xE0)
Format : MPEG Video
Format version : Version 2
Format profile : Main@Main
Format settings : CustomMatrix / BVOP
Format settings, BVOP : Yes
Format settings, Matrix : Custom
Format settings, GOP : M=3, N=15
Format settings, picture structure : Frame
Duration : 21 min 37 s
Bit rate mode : Variable
Bit rate : 6 296 kb/s
Maximum bit rate : 7 700 kb/s
Width : 720 pixels
Height : 480 pixels
Display aspect ratio : 4:3
Frame rate : 29.970 (30000/1001) FPS
Standard : NTSC
Color space : YUV
Chroma subsampling : 4:2:0
Bit depth : 8 bits
Scan type : Interlaced
Scan order : Bottom Field First
Compression mode : Lossy
Bits/(Pixel*Frame) : 0.608
Time code of first frame : 00:21:46;26
Time code source : Group of pictures header
GOP, Open/Closed : Closed
Stream size : 974 MiB (95%)
Color primaries : BT.601 NTSC
Transfer characteristics : BT.601
Matrix coefficients : BT.601

Audio
ID : 189 (0xBD)-128 (0x80)
Format : AC-3
Format/Info : Audio Coding 3
Muxing mode : DVD-Video
Duration : 21 min 37 s
Bit rate mode : Constant
Bit rate : 192 kb/s
Channel(s) : 2 channels
Channel positions : Front: L R
Sampling rate : 48.0 kHz
Frame rate : 31.250 FPS (1536 SPF)
Bit depth : 16 bits
Compression mode : Lossy
Delay relative to video : -346 ms
Stream size : 29.7 MiB (3%)
Service kind : Complete Main

Menu

Screenshots








Buy Premium Account From My Download Links And Get Resumable Support & SUPER Fastest speed

rapidgator_net:
https://rapidgator.net/file/7321bbd423b2c098701c39efb5deb865/zot3h.Woodworkers.Guild.Of.America..Logs.to.Lumber.part1.rar.html
https://rapidgator.net/file/f2819566eda28216fa57aebd8e8bd65e/zot3h.Woodworkers.Guild.Of.America..Logs.to.Lumber.part2.rar.html
https://rapidgator.net/file/1ee7e145e30e56e17b068dbbb4003dbc/zot3h.Woodworkers.Guild.Of.America..Logs.to.Lumber.part3.rar.html
https://rapidgator.net/file/515a56887b5e5bc2a65c8cfa14afa967/zot3h.Woodworkers.Guild.Of.America..Logs.to.Lumber.part4.rar.html
https://rapidgator.net/file/054dc1bd4ae8235bca3feb43f5784f40/zot3h.Woodworkers.Guild.Of.America..Logs.to.Lumber.part5.rar.html
https://rapidgator.net/file/aca89676c32c62dad1fd6e52147fea89/zot3h.Woodworkers.Guild.Of.America..Logs.to.Lumber.part6.rar.html
https://rapidgator.net/file/99880e1da1f3de7f942a1dd1c368cc6f/zot3h.Woodworkers.Guild.Of.America..Logs.to.Lumber.part7.rar.html
https://rapidgator.net/file/0b75f4a243b9c0b563205ccaaf0d1c47/zot3h.Woodworkers.Guild.Of.America..Logs.to.Lumber.part8.rar.html

nitroflare_com:
https://nitroflare.com/view/30CFF3CDDF96DD2/zot3h.Woodworkers.Guild.Of.America..Logs.to.Lumber.part1.rar
https://nitroflare.com/view/0EE23E4A7C8688F/zot3h.Woodworkers.Guild.Of.America..Logs.to.Lumber.part2.rar
https://nitroflare.com/view/00D7CCEBA6357C6/zot3h.Woodworkers.Guild.Of.America..Logs.to.Lumber.part3.rar
https://nitroflare.com/view/7A5D82C5E094B9B/zot3h.Woodworkers.Guild.Of.America..Logs.to.Lumber.part4.rar
https://nitroflare.com/view/1D316A974406D27/zot3h.Woodworkers.Guild.Of.America..Logs.to.Lumber.part5.rar
https://nitroflare.com/view/326B58F9F3CCCD9/zot3h.Woodworkers.Guild.Of.America..Logs.to.Lumber.part6.rar
https://nitroflare.com/view/854B446BA1AE326/zot3h.Woodworkers.Guild.Of.America..Logs.to.Lumber.part7.rar
https://nitroflare.com/view/6772CE6B3D1E792/zot3h.Woodworkers.Guild.Of.America..Logs.to.Lumber.part8.rar

uploadgig_com:
http://uploadgig.com/file/download/0bceCe5612E8054c/zot3h.Woodworkers.Guild.Of.America..Logs.to.Lumber.part1.rar
http://uploadgig.com/file/download/93c7d29459E00d2a/zot3h.Woodworkers.Guild.Of.America..Logs.to.Lumber.part2.rar
http://uploadgig.com/file/download/5Ddc73510d36c061/zot3h.Woodworkers.Guild.Of.America..Logs.to.Lumber.part3.rar
http://uploadgig.com/file/download/aa630295e92376b9/zot3h.Woodworkers.Guild.Of.America..Logs.to.Lumber.part4.rar
http://uploadgig.com/file/download/a2aBd3cdB1168687/zot3h.Woodworkers.Guild.Of.America..Logs.to.Lumber.part5.rar
http://uploadgig.com/file/download/0907e53f891aE7b5/zot3h.Woodworkers.Guild.Of.America..Logs.to.Lumber.part6.rar
http://uploadgig.com/file/download/C85a20cf498f0a0C/zot3h.Woodworkers.Guild.Of.America..Logs.to.Lumber.part7.rar
http://uploadgig.com/file/download/5BdEf57cb380cD32/zot3h.Woodworkers.Guild.Of.America..Logs.to.Lumber.part8.rar


Links are Interchangeable - No Password - Single Extraction
Information
Users of Guests are not allowed to comment this publication.