Fundamentals of Perspective Vol. 1-3

Fundamentals of  Perspective Vol. 1-3


Fundamentals of Perspective Vol. 1-3
WEBRip | English | MP4 | 1280 x 720 | AVC ~1337 Kbps | 24 fps
AAC | 63 Kbps | 22.05 KHz | 2 channels | 8h 37mn | 7.39 GB
Genre: eLearning Video / Painting, Drawing

A solid understanding of Perspective gives the artist the means to draw what they see both accurately and believably. This series on the Fundamentals of Perspective will provide artists with the understanding of not only the concepts but also put them into practice as Illustration master Gary Meyer guides you through each exercise.

In this lecture titled Fundamentals of Perspective 1: One-Point Principles and Concepts, the basic concepts of one-point perspective will be covered. This lecture primarily focuses on the fundamental understanding of the principles, terminology, and the concept of scale in perspective. Gary will demonstrate through various exercises, how to not only set up an illustration in perspective, but also how to draw objects to scale using methods to transfer scale from one object to another in correct perspective. The principles and concepts discussed here provide a solid foundation that the following lectures build upon.

General
Complete name : 6.Drawing from Plans and Elevation - Part 2.mp4
Format : MPEG-4
Format profile : Base Media
Codec ID : isom (isom/iso2/avc1/mp41)
File size : 235 MiB
Duration : 20 min 31 s
Overall bit rate : 1 599 kb/s
Writing application : Lavf58.20.100

Video
ID : 1
Format : AVC
Format/Info : Advanced Video Codec
Format profile : [email protected]
Format settings : CABAC / 4 Ref Frames
Format settings, CABAC : Yes
Format settings, RefFrames : 4 frames
Codec ID : avc1
Codec ID/Info : Advanced Video Coding
Duration : 20 min 31 s
Bit rate : 1 337 kb/s
Width : 1 280 pixels
Height : 720 pixels
Display aspect ratio : 16:9
Frame rate mode : Constant
Frame rate : 24.000 FPS
Color space : YUV
Chroma subsampling : 4:2:0
Bit depth : 8 bits
Scan type : Progressive
Bits/(Pixel*Frame) : 0.060
Stream size : 196 MiB (84%)
Writing library : x264 core 146 r2538 121396c
Encoding settings : cabac=1 / ref=3 / deblock=1:0:0 / analyse=0x3:0x133 / me=hex / subme=7 / psy=1 / psy_rd=1.00:0.00 / mixed_ref=1 / me_range=16 / chroma_me=1 / trellis=1 / 8x8dct=1 / cqm=0 / deadzone=21,11 / fast_pskip=1 / chroma_qp_offset=-2 / threads=6 / lookahead_threads=1 / sliced_threads=0 / nr=0 / decimate=1 / interlaced=0 / bluray_compat=0 / constrained_intra=0 / bframes=3 / b_pyramid=2 / b_adapt=1 / b_bias=0 / direct=1 / weightb=1 / open_gop=0 / weightp=2 / keyint=250 / keyint_min=25 / scenecut=40 / intra_refresh=0 / rc_lookahead=40 / rc=crf / mbtree=1 / crf=20.0 / qcomp=0.60 / qpmin=10 / qpmax=51 / qpstep=4 / ip_ratio=1.40 / aq=1:1.00

Audio #1
ID : 2
Format : AAC
Format/Info : Advanced Audio Codec
Format profile : LC
Codec ID : mp4a-40-2
Duration : 20 min 31 s
Bit rate mode : Constant
Bit rate : 63.0 kb/s
Channel(s) : 2 channels
Channel(s)_Original : 1 channel
Channel positions : Front: C
Sampling rate : 22.05 kHz
Frame rate : 21.533 FPS (1024 SPF)
Compression mode : Lossy
Stream size : 9.24 MiB (4%)
Default : Yes
Alternate group : 1

Audio #2
ID : 3
Format : MPEG Audio
Format version : Version 1
Format profile : Layer 3
Format settings : Joint stereo / MS Stereo
Codec ID : mp4a-6B
Duration : 20 min 31 s
Bit rate mode : Constant
Bit rate : 192 kb/s
Channel(s) : 2 channels
Sampling rate : 48.0 kHz
Frame rate : 41.667 FPS (1152 SPF)
Compression mode : Lossy
Stream size : 28.2 MiB (12%)
Default : Yes
Alternate group : 2

Buy Premium Account From My Download Links And Get Resumable Support & SUPER Fastest speed



Links are Interchangeable - No Password - Single Extraction
Информация
Посетители, находящиеся в группе Guests, не могут оставлять комментарии к данной публикации.