Laracon Online (2020)

Laracon  Online (2020)


Laracon Online (2020)
WEBRip | English | MP4 | 2048 x 768 | AVC ~322 kbps | 25 fps
AAC | 253 Kbps | 48.0 KHz | 2 channels | 09:28:21 | 3.15 GB
Genre: eLearning Video / Development, Programming

The largest Laravel event of the year, streamed directly to you. We've put together a full day of talks featuring some of Laravel's brightest minds, and streaming them directly to your home or office.

These talks are brand new and never before presented at any Laracon, including brand new feature announcements from Taylor Otwell, creator of Laravel. All talks are presented live during the event.

General
Complete name :5-jeffrey-way-00-45-12.mp4
Format : MPEG-4
Format profile : Base Media / Version 2
Codec ID : mp42 (mp42/mp41/isom/avc1)
File size : 187 MiB
Duration : 45 min 11 s
Overall bit rate mode : Variable
Overall bit rate : 580 kb/s
Encoded date : UTC 2020-08-27 21:45:53
Tagged date : UTC 2020-08-27 21:45:53

Video
ID : 1
Format : AVC
Format/Info : Advanced Video Codec
Format profile : [email protected]
Format settings : CABAC / 5 Ref Frames
Format settings, CABAC : Yes
Format settings, RefFrames : 5 frames
Codec ID : avc1
Codec ID/Info : Advanced Video Coding
Duration : 45 min 11 s
Bit rate : 322 kb/s
Width : 2 048 pixels
Height : 768 pixels
Display aspect ratio : 2.667
Frame rate mode : Constant
Frame rate : 25.000 FPS
Color space : YUV
Chroma subsampling : 4:2:0
Bit depth : 8 bits
Scan type : Progressive
Bits/(Pixel*Frame) : 0.008
Stream size : 104 MiB (56%)
Writing library : x264 core 160 r10 22fcbe1
Encoding settings : cabac=1 / ref=5 / deblock=1:0:0 / analyse=0x3:0x113 / me=hex / subme=8 / psy=1 / psy_rd=1.00:0.00 / mixed_ref=1 / me_range=16 / chroma_me=1 / trellis=2 / 8x8dct=1 / cqm=0 / deadzone=21,11 / fast_pskip=1 / chroma_qp_offset=-2 / threads=24 / lookahead_threads=4 / sliced_threads=0 / nr=0 / decimate=1 / interlaced=0 / bluray_compat=0 / stitchable=1 / constrained_intra=0 / bframes=3 / b_pyramid=2 / b_adapt=2 / b_bias=0 / direct=3 / weightb=1 / open_gop=0 / weightp=2 / keyint=infinite / keyint_min=25 / scenecut=40 / intra_refresh=0 / rc_lookahead=50 / rc=crf / mbtree=1 / crf=20.0 / qcomp=0.60 / qpmin=5 / qpmax=69 / qpstep=4 / vbv_maxrate=5500 / vbv_bufsize=15000 / crf_max=0.0 / nal_hrd=none / filler=0 / ip_ratio=1.40 / aq=1:1.00
Encoded date : UTC 2020-08-27 21:45:53
Tagged date : UTC 2020-08-27 21:45:53
Color range : Limited
Color primaries : BT.709
Transfer characteristics : BT.709
Matrix coefficients : BT.709

Audio
ID : 2
Format : AAC
Format/Info : Advanced Audio Codec
Format profile : LC
Codec ID : mp4a-40-2
Duration : 45 min 11 s
Bit rate mode : Variable
Bit rate : 253 kb/s
Channel(s) : 2 channels
Channel positions : Front: L R
Sampling rate : 48.0 kHz
Frame rate : 46.875 FPS (1024 SPF)
Compression mode : Lossy
Stream size : 81.9 MiB (44%)
Encoded date : UTC 2020-08-27 21:45:53
Tagged date : UTC 2020-08-27 21:45:53

Buy Premium Account From My Download Links And Get Resumable Support & SUPER Fastest speed



Links are Interchangeable - No Password - Single Extraction
Information
Users of Guests are not allowed to comment this publication.