Codewithmosh - The Ultimate Git Course (2020)

Codewithmosh - The  Ultimate Git Course (2020)


Codewithmosh - The Ultimate Git Course
WEBRip | English | MP4 + PDF Guides | 1920 x 1080 | AVC ~906 kbps | 60 fps
AAC | 128 Kbps | 44.1 KHz | 2 channels | 05:11:52 | 929 MB
Genre: eLearning Video / Development, Programming

Now's the time to master Git! Git is the most popular Version Control System (VCS) in the world. It helps you track your project history, revert back your code in case of mistakes, and work effectively in a team.


That's why it's listed in almost every job description for a software or DevOps engineer!
The problem is: Git is a bit complex. I've seen seasoned developers using Git for years and still have no idea how Git really works.
That's why I've created this course. To help you understand Git inside out and use it with confidence. Once you understand how Git works, using Git commands should be a breeze.
No more copy/pasting Git commands from StackOverflow and hoping everything magically works! You'll be in control of the commands!

Content:

01 - Getting Started
02 - Creating Snapshots
03 - Browsing History
04 - Branching
05 - Collaboration
06 - Rewriting History

General
Complete name : 6- Committing Best Practices.mp4
Format : MPEG-4
Format profile : Base Media
Codec ID : isom (isom/iso2/avc1/mp41)
File size : 14.9 MiB
Duration : 1 min 59 s
Overall bit rate : 1 047 kb/s
Writing application : Lavf58.20.100

Video
ID : 1
Format : AVC
Format/Info : Advanced Video Codec
Format profile : [email protected]
Format settings : CABAC / 4 Ref Frames
Format settings, CABAC : Yes
Format settings, RefFrames : 4 frames
Codec ID : avc1
Codec ID/Info : Advanced Video Coding
Duration : 1 min 59 s
Bit rate : 906 kb/s
Width : 1 920 pixels
Height : 1 080 pixels
Display aspect ratio : 16:9
Frame rate mode : Constant
Frame rate : 60.000 FPS
Color space : YUV
Chroma subsampling : 4:2:0
Bit depth : 8 bits
Scan type : Progressive
Bits/(Pixel*Frame) : 0.007
Stream size : 12.9 MiB (87%)
Writing library : x264 core 155
Encoding settings : cabac=1 / ref=4 / deblock=1:0:0 / analyse=0x3:0x113 / me=umh / subme=8 / psy=1 / psy_rd=1.00:0.00 / mixed_ref=1 / me_range=16 / chroma_me=1 / trellis=1 / 8x8dct=1 / cqm=0 / deadzone=21,11 / fast_pskip=1 / chroma_qp_offset=-2 / threads=34 / lookahead_threads=5 / sliced_threads=0 / nr=0 / decimate=1 / interlaced=0 / bluray_compat=0 / constrained_intra=0 / bframes=3 / b_pyramid=2 / b_adapt=2 / b_bias=0 / direct=3 / weightb=1 / open_gop=0 / weightp=2 / keyint=180 / keyint_min=91 / scenecut=0 / intra_refresh=0 / rc_lookahead=40 / rc=crf / mbtree=1 / crf=23.0 / qcomp=0.60 / qpmin=10 / qpmax=51 / qpstep=4 / vbv_maxrate=5625 / vbv_bufsize=5625 / crf_max=0.0 / nal_hrd=none / filler=0 / ip_ratio=1.41 / aq=1:1.00
Language : English
Color range : Limited
Color primaries : BT.709

Audio
ID : 2
Format : AAC
Format/Info : Advanced Audio Codec
Format profile : LC
Codec ID : mp4a-40-2
Duration : 1 min 59 s
Duration_LastFrame : -21 ms
Bit rate mode : Constant
Bit rate : 128 kb/s
Channel(s) : 2 channels
Channel positions : Front: L R
Sampling rate : 44.1 kHz
Frame rate : 43.066 FPS (1024 SPF)
Compression mode : Lossy
Stream size : 1.83 MiB (12%)
Language : English
Default : Yes
Alternate group : 1
Buy Premium Account From My Download Links And Get Resumable Support & SUPER Fastest speed



Links are Interchangeable - No Password - Single Extraction
Информация
Посетители, находящиеся в группе Guests, не могут оставлять комментарии к данной публикации.